百度云資源論壇

 找回密碼
 立即注冊
打印 上一主題 下一主題

[BT下載]侏羅紀世界2[3D上下]2018.1080p.3D.BluRay.Half-OU.x264.DTS-X.7...

[復制鏈接]
跳轉到指定樓層
樓主



譯  名 侏羅紀世界2/侏羅紀世界:殞落國度(臺)/侏羅紀世界:迷失國度(港)/侏羅紀世界2:失落王國/侏羅紀世界2:墮落王國/侏羅紀公園5
片  名 Jurassic World: Fallen Kingdom
年  代 2018
產  地 美國/西班牙
類  別 動作/科幻/冒險
語  言 英語
上映日期 2018-06-15(中國大陸)/2018-06-22(美國)
IMDb評分  6.4/10 from 122,933 users
西西論壇 http://www.xixi16.com/
片  長 128分鐘
導  演 胡安·安東尼奧·巴亞納 Juan Antonio Bayona
主  演 克里斯·帕拉特 Chris Pratt
      布萊絲·達拉斯·霍華德 Bryce Dallas Howard
      賈斯蒂斯·史密斯 Justice Smith
      伊莎貝拉·瑟蒙 1394999
      拉菲·斯波 Rafe Spall
      托比·瓊斯 Toby Jones
      泰德·拉文 Ted Levine
      詹姆斯·克倫威爾 James Cromwell
      黃榮亮 B.D. Wong
      丹妮艾拉·皮內達 Daniella Pineda
      杰拉丁·卓別林 Geraldine Chaplin
      杰夫·高布倫 Jeff Goldblum
      卡米爾·雷米澤斯基 Kamil Lemieszewski
      丹尼爾·斯蒂森 Daniel Stisen
      皮特·杰森 Peter Jason
      邁克爾·帕帕約翰 Michael Papajohn
      羅伯特·埃姆斯 Robert Emms
      羅南·薩莫爾斯 Ronan Summers
      麥克斯·貝克 Max Baker
      丹尼爾·厄根 Daniel Eghan
      戴維·奧拉瓦萊·阿印德 David Olawale Ayinde

簡  介

  自侏羅紀世界的騷亂以來,種類繁多的恐龍在努布拉島度過了三年無拘無束的時光。然而該島火山活動頻繁,隨時有噴發的危險。致力于恐龍保護的克萊爾·戴寧(布萊絲·達拉斯·霍華德 Bryce Dallas Howard 飾)受到班杰明?洛克伍德的邀請。班杰明及其下屬伊萊·米爾斯(拉菲·斯波 Rafe Spall 飾)希望她和相關技術人員前往努布拉島拯救那里的恐龍,并將它們安置在新的棲息地。受到感染的克萊爾設法找來歐文(克里斯·帕拉特 Chris Pratt 飾)一同前往,歐文則希望救出他親手馴養的迅猛龍小藍。當他們踏足這座隔絕之島時,卻發現事情沒那么簡單。
  火山蠢蠢欲動,隨時爆發,而混亂之中丑惡的陰謀悄然醞釀……


Video
ID : 1
Format : AVC
Format/Info : Advanced Video Codec
Format profile : Hig4.1
Format settings : CABAC / 3 Ref Frames
Format settings, CABAC : Yes
Format settings, ReFrames : 3 frames
Codec ID : V_MPEG4/ISO/AVC
Duration : 2 h 8 min
Bit rate : 16.0 Mb/s
Width : 1 920 pixels
Height : 1 080 pixels
Display aspect ratio : 16:9
Frame rate mode : Constant
Frame rate : 23.976 (24000/1001) FPS
Color space : YUV
Chroma subsampling : 4:2:0
Bit depth : 8 bits
Scan type : Progressive
Bits/(Pixel*Frame) : 0.322
Stream size : 14.3 GiB (55%)
Title : Jurassic.World.Fallen.Kingdom.2018.1080p.3D.BluRay.Half-OU.x264.DTS-X.7.1-FGT
Writing library : x264 core 148
Encoding settings : cabac=1 / ref=3 / deblock=1:-1:-1 / analyse=0x3:0 / me=hex / subme=5 / psy=1 / psy_rd=1.00:0.00 / mixed_ref=0 / me_range=16 / chroma_me=1 / trellis=1 / 8x8dct=1 / cqm=0 / deadzone=21,11 / fast_pskip=0 / chroma_qp_offset=0 / threads=24 / lookahead_threads=6 / sliced_threads=0 / nr=0 / decimate=1 / interlaced=0 / bluray_compat=0 / constrained_intra=0 / bframes=2 / b_pyramid=0 / b_adapt=1 / b_bias=0 / direct=1 / weightb=0 / open_gop=0 / weightp=0 / keyint=24 / keyint_min=2 / scenecut=40 / intra_refresh=0 / rc=abr / mbtree=0 / bitrate=16000 / ratetol=1.0 / qcomp=0.60 / qpmin=0 / qpmax=69 / qpstep=4 / ip_ratio=1.40 / pb_ratio=1.30 / aq=1:1.00
Default : Yes
Forced : No
Color range : Limited
Color primaries : BT.709
Transfer characteristics : BT.709
Matrix coefficients : BT.709

Audio #1
ID : 2
Format : DTS
Format/Info : Digital Theater Systems
Format profile : X / MA / Core
Codec ID : A_DTS
Duration : 2 h 8 min
Bit rate mode : Variable / Variable / Constant
Bit rate : 4 231 kb/s / 4 231 kb/s / 1 509 kb/s
Channel(s) : Object Based / 8 channels / 6 channels
Channel positions : Object Based / Front: L C R, Side: L R, Back: L R, LFE / Front: L C R, Side: L R, LFE
Sampling rate : / 48.0 kHz / 48.0 kHz
Frame rate : 93.750 FPS (512 SPF)
Bit depth : / 24 bits / 24 bits
Compression mode : / Lossless / Lossy
Stream size : 3.79 GiB (15%)
Title : Jurassic.World.Fallen.Kingdom.2018.1080p.3D.BluRay.Half-OU.x264.DTS-X.7.1-FGT
Language : English
Default : Yes
Forced : No

Audio #2
ID : 3
Format : DTS
Format/Info : Digital Theater Systems
Codec ID : A_DTS
Duration : 2 h 8 min
Bit rate mode : Constant
Bit rate : 1 509 kb/s
Channel(s) : 6 channels
Channel positions : Front: L C R, Side: L R, LFE
Sampling rate : 48.0 kHz
Frame rate : 93.750 FPS (512 SPF)
Bit depth : 24 bits
Compression mode : Lossy
Stream size : 1.35 GiB (5%)
Title : Jurassic.World.Fallen.Kingdom.2018.1080p.3D.BluRay.Half-OU.x264.DTS-X.7.1-FGT
Language : English
Default : No
Forced : No

Audio #3
ID : 4
Format : DTS
Format/Info : Digital Theater Systems
Format profile : HRA / Core
Codec ID : A_DTS
Duration : 2 h 8 min
Bit rate mode : Constant
Bit rate : 2 046 kb/s / 1 509 kb/s
Channel(s) : 8 channels / 6 channels
Channel positions : Front: L C R, Side: L R, Back: L R, LFE / Front: L C R, Side: L R, LFE
Sampling rate : 48.0 kHz
Frame rate : 93.750 FPS (512 SPF)
Bit depth : 24 bits
Compression mode : Lossy
Stream size : 1.83 GiB (7%)
Title : Jurassic.World.Fallen.Kingdom.2018.1080p.3D.BluRay.Half-OU.x264.DTS-X.7.1-FGT
Language : Spanish
Default : No
Forced : No

Audio #4
ID : 5
Format : DTS
Format/Info : Digital Theater Systems
Codec ID : A_DTS
Duration : 2 h 8 min
Bit rate mode : Constant
Bit rate : 1 509 kb/s
Channel(s) : 6 channels
Channel positions : Front: L C R, Side: L R, LFE
Sampling rate : 48.0 kHz
Frame rate : 93.750 FPS (512 SPF)
Bit depth : 24 bits
Compression mode : Lossy
Stream size : 1.35 GiB (5%)
Title : Jurassic.World.Fallen.Kingdom.2018.1080p.3D.BluRay.Half-OU.x264.DTS-X.7.1-FGT
Language : Spanish
Default : No
Forced : No

Audio #5
ID : 6
Format : DTS
Format/Info : Digital Theater Systems
Format profile : HRA / Core
Codec ID : A_DTS
Duration : 2 h 8 min
Bit rate mode : Constant
Bit rate : 2 046 kb/s / 1 509 kb/s
Channel(s) : 8 channels / 6 channels
Channel positions : Front: L C R, Side: L R, Back: L R, LFE / Front: L C R, Side: L R, LFE
Sampling rate : 48.0 kHz
Frame rate : 93.750 FPS (512 SPF)
Bit depth : 24 bits
Compression mode : Lossy
Stream size : 1.83 GiB (7%)
Title : Jurassic.World.Fallen.Kingdom.2018.1080p.3D.BluRay.Half-OU.x264.DTS-X.7.1-FGT
Language : French
Default : No
Forced : No

Audio #6
ID : 7
Format : DTS
Format/Info : Digital Theater Systems
Codec ID : A_DTS
Duration : 2 h 8 min
Bit rate mode : Constant
Bit rate : 1 509 kb/s
Channel(s) : 6 channels
Channel positions : Front: L C R, Side: L R, LFE
Sampling rate : 48.0 kHz
Frame rate : 93.750 FPS (512 SPF)
Bit depth : 24 bits
Compression mode : Lossy
Stream size : 1.35 GiB (5%)
Title : Jurassic.World.Fallen.Kingdom.2018.1080p.3D.BluRay.Half-OU.x264.DTS-X.7.1-FGT
Language : French
Default : No
Forced : No

Audio #7
ID : 8
Format : AC-3
Format/Info : Audio Coding 3
Codec ID : A_AC3
Duration : 2 h 8 min
Bit rate mode : Constant
Bit rate : 192 kb/s
Channel(s) : 2 channels
Channel positions : Front: L R
Sampling rate : 48.0 kHz
Frame rate : 31.250 FPS (1536 SPF)
Bit depth : 16 bits
Compression mode : Lossy
Stream size : 176 MiB (1%)
Title : Jurassic.World.Fallen.Kingdom.2018.1080p.3D.BluRay.Half-OU.x264.DTS-X.7.1-FGT
Language : English
Service kind : Complete Main
Default : No
Forced : No

Text #1
ID : 9
Format : PGS
Muxing mode : zlib
Codec ID : S_HDMV/PGS
Codec ID/Info : Picture based subtitle format used on BDs/HD-DVDs
Duration : 2 h 7 min
Bit rate : 44.7 kb/s
Count of elements : 3542
Stream size : 40.6 MiB (0%)
Title : English-PGS
Language : English
Default : Yes
Forced : No

Text #2
ID : 10
Format : PGS
Muxing mode : zlib
Codec ID : S_HDMV/PGS
Codec ID/Info : Picture based subtitle format used on BDs/HD-DVDs
Duration : 2 h 6 min
Bit rate : 33.4 kb/s
Count of elements : 2590
Stream size : 30.2 MiB (0%)
Title : Spanish-PGS
Language : Spanish
Default : No
Forced : No

Text #3
ID : 11
Format : PGS
Muxing mode : zlib
Codec ID : S_HDMV/PGS
Codec ID/Info : Picture based subtitle format used on BDs/HD-DVDs
Duration : 2 h 6 min
Bit rate : 31.5 kb/s
Count of elements : 2592
Stream size : 28.5 MiB (0%)
Title : French-PGS
Language : French
Default : No
Forced : No

Text #4
ID : 12
Format : PGS
Muxing mode : zlib
Codec ID : S_HDMV/PGS
Codec ID/Info : Picture based subtitle format used on BDs/HD-DVDs
Duration : 2 h 6 min
Bit rate : 251 b/s
Count of elements : 20
Stream size : 233 KiB (0%)
Title : Spanish-FORCED-PGS
Language : Spanish
Default : No
Forced : No

Text #5
ID : 13
Format : PGS
Muxing mode : zlib
Codec ID : S_HDMV/PGS
Codec ID/Info : Picture based subtitle format used on BDs/HD-DVDs
Duration : 2 h 6 min
Bit rate : 830 b/s
Count of elements : 60
Stream size : 769 KiB (0%)
Title : French-FORCED-PGS
Language : French
Default : No
Forced : No

Menu
00:00:00.000 : en01)00:00:00:000
00:07:13.224 : en02)00:07:13:224
00:12:01.554 : en03)00:12:01:554
00:17:17.745 : en04)00:17:17:745
00:21:17.192 : en05)00:21:17:192
00:28:49.811 : en06)00:28:49:811
00:35:04.685 : en07)00:35:04:685
00:40:51.574 : en08)00:40:51:574
00:46:32.498 : en09)00:46:32:498
00:52:04.996 : en10)00:52:04:996
01:00:59.197 : en:(11)01:00:59:197
01:06:50.256 : en:(12)01:06:50:256
01:11:07.638 : en:(13)01:11:07:638
01:17:21.094 : en:(14)01:17:21:094
01:26:55.210 : en:(15)01:26:55:210
01:33:01.492 : en:(16)01:33:01:492
01:42:55.878 : en:(17)01:42:55:878
01:50:01.553 : en:(18)01:50:01:553
01:54:56.222 : en:(19)01:54:56:222
01:58:37.985 : en:(20)01:58:37:985
02:08:17.439 : en:(21)02:08:17:439




Jurassic.World.Fallen.Kingdom.2018.1080p.3D.BluRay.Half-OU.x264.DTS-X.7.1-FGT[bt.torrent (65.57 KB)


回復

使用道具 舉報

小黑屋|百度云資源分享吧 ( 京ICP備15014721號-2 )

本網站所有資源來自網絡,如無意中侵犯了您的權益,請發郵件至 [email protected],立即清除相關鏈接

GMT+8, 2019-11-15 08:27 , Processed in 0.074465 second(s), 20 queries .

Powered by Discuz! X3.2

© 2001-2013 Comsenz Inc.

快速回復 返回頂部 返回列表
四川金7乐下载