百度云資源論壇

 找回密碼
 立即注冊
打印 上一主題 下一主題

[BT下載]神奇動物:格林德沃之罪 2018.1080p.3D.BluRay.Half-OU.x264...

[復制鏈接]
跳轉到指定樓層
樓主



譯  名 神奇動物:格林德沃之罪 / Fantastic Beasts and Where to Find Them 2 / 怪獸與葛林戴華德之罪(港) / 怪獸與葛林戴華德的罪行(臺) / 神奇動物2 / 神奇動物在哪里2 / 神奇動物在哪里2:格林德沃之罪
片  名 Fantastic Beasts: The Crimes of Grindelwald
年  代 2018
產  地 美國 / 英國
類  別 奇幻 / 冒險
語  言 英語
上映日期 2018-11-16(中國大陸/美國)
IMDb評分 6.8/10 from 118011 users
片  長 134分鐘
導  演 大衛·葉茨 David Yates
編  劇 J·K·羅琳 J.K. Rowling
主  演 埃迪·雷德梅恩 Eddie Redmayne
      凱瑟琳·沃特斯頓 Katherine Waterston
      約翰尼·德普 Johnny Depp
      裘德·洛 Jude Law
      埃茲拉·米勒 Ezra Miller
      丹·福勒 Dan Fogler
      艾莉森·薩多爾 Alison Sudol
      佐伊·克羅維茲 Zo? Kravitz
      卡勒姆·特納 Callum Turner
      金秀賢 Soo-hyun Kim
      威廉·納迪蘭 William Nadylam
      凱文·格思里 Kevin Guthrie
      卡門·艾喬戈 Carmen Ejogo
      沃爾夫·羅特 Wolf Roth
      德里克·里德爾 Derek Riddell
      科內爾·約翰 Cornell John
      英格瓦·埃蓋特·西古德松 Ingvar Eggert Siguresson
      波佩·科比-特曲 Poppy Corby-Tuech
      西蒙·米考克 Simon Meacock
      大衛·櫻井 David Sakurai
      維多利亞·耶茨 Victoria Yeates
      奧拉維爾·達里·奧拉夫松 ólafur Darri ólafsson
      大衛·威爾莫特 David Wilmot
      艾德·高根 Ed Gaughan
      奧莉維亞·波皮卡 Olivia Popica
      Alfie Simmons
      菲奧娜·格拉斯科特 Fiona Glascott
      杰米·坎貝爾·鮑爾 Jamie Campbell Bower
      托比·瑞格波 Toby Regbo
      約書亞·謝伊 Joshua Shea
      布隆蒂斯·佐杜洛夫斯基 Brontis Jodorowsky
      杰西卡·威廉姆斯 Jessica Williams
      歐文·富爾 Olwen Fouere
      休·夸希 Hugh Quarshie
      塔希爾·布爾漢 Tahir Burhan
      邁克爾·科布 Michael Cobb
      薩比恩·克洛森 Sabine Crossen
      亞歷珊德拉·福特 Alexandra Ford
      肖恩·吉斯靈厄姆 Sean Gislingham
      通恰伊·古奈什 Tuncay Gunes
      邁克爾·海登 Michael Haydon
      露絲·霍洛克斯 Ruth Horrocks
      泰·赫爾利 Ty Hurley
      納西爾·賈瑪 Nasir Jama
      卡米爾·雷米澤斯基 Kamil Lemieszewski
      迪諾·布加迪 Deano Bugatti




標  簽 魔法世界 | 魔幻 | 魔法 | 英國 | 奇幻 | 2018 | 美國 | 冒險


簡  介  


  雖然紐特(埃迪·雷德梅恩 Eddie Redmayne 飾)協助美國魔法部將邪惡的黑巫師格林德沃(約翰尼·德普 Johnny Depp 飾)捉拿歸案,但最終格林德沃還是逃脫了禁錮,他來到了法國巴黎,一是為了集結信徒掀起革命,二十為了尋找同樣藏匿在這里的克雷登斯(埃茲拉·米勒 Ezra Miller 飾),寄生在克雷登斯身上的默默然是幫助格林德沃實現野心的不可或缺的道具。
格林德沃的潛逃在整個魔法世界里都掀起了軒然大波,一時間草木皆兵。鄧布利多(裘德·洛 Jude Law 飾)秘密的找到了紐特,希望他能夠前往巴黎,先格林德沃一步找到克雷登斯。和紐特一起踏上巴黎之旅的,是麻雞雅各布(丹·福格勒 Dan Fogler 飾),他此行的目的,是要找回先前因為吵架而來到巴黎投奔姐姐蒂娜(凱瑟琳·沃特森 Katherine Waterston 飾)的戀人奎妮(艾莉森·蘇朵兒 Alison Sudol 飾)。


獲獎情況  


  第72屆英國電影學院獎(2019)
  電影獎 最佳藝術指導(提名) 斯圖爾特·克萊格 / 安娜·平諾克
  電影獎 最佳特殊視覺效果(提名)


  第23屆美國藝術指導工會獎(2019)
  電影獎 最佳幻想電影藝術指導(提名) 斯圖爾特·克萊格


  第17屆美國視覺效果協會獎(2019)
  最佳真人電影模擬動畫效果(提名)


  第23屆金衛星獎(2019)
  電影部門 最佳視覺效果(提名)
  電影部門 最佳美術指導(提名)
  電影部門 最佳服裝設計(提名)


  第4屆豆瓣電影年度榜單(2017)
  最值得期待的外語電影(提名)


Video
ID : 1
Format : AVC
Format/Info : Advanced Video Codec
Format profile : [email protected]
Format settings : CABAC / 3 Ref Frames
Format settings, CABAC : Yes
Format settings, ReFrames : 3 frames
Codec ID : V_MPEG4/ISO/AVC
Duration : 2 h 13 min
Bit rate : 16.0 Mb/s
Width : 1 920 pixels
Height : 1 080 pixels
Display aspect ratio : 16:9
Frame rate mode : Constant
Frame rate : 23.976 (24000/1001) FPS
Color space : YUV
Chroma subsampling : 4:2:0
Bit depth : 8 bits
Scan type : Progressive
Bits/(Pixel*Frame) : 0.322
Stream size : 14.9 GiB (60%)
Title : Fantastic.Beasts.The.Crimes.of.Grindelwald.2018.1080p.3D.BluRay.Half-OU.x264.DTS-HD.MA.7.1-FGT
Writing library : x264 core 148
Encoding settings : cabac=1 / ref=3 / deblock=1:-1:-1 / analyse=0x3:0 / me=hex / subme=5 / psy=1 / psy_rd=1.00:0.00 / mixed_ref=0 / me_range=16 / chroma_me=1 / trellis=1 / 8x8dct=1 / cqm=0 / deadzone=21,11 / fast_pskip=0 / chroma_qp_offset=0 / threads=24 / lookahead_threads=6 / sliced_threads=0 / nr=0 / decimate=1 / interlaced=0 / bluray_compat=0 / constrained_intra=0 / bframes=2 / b_pyramid=0 / b_adapt=1 / b_bias=0 / direct=1 / weightb=0 / open_gop=0 / weightp=0 / keyint=24 / keyint_min=2 / scenecut=40 / intra_refresh=0 / rc=abr / mbtree=0 / bitrate=16000 / ratetol=1.0 / qcomp=0.60 / qpmin=0 / qpmax=69 / qpstep=4 / ip_ratio=1.40 / pb_ratio=1.30 / aq=1:1.00
Default : Yes
Forced : No
Color range : Limited
Color primaries : BT.709
Transfer characteristics : BT.709
Matrix coefficients : BT.709

Audio #1
ID : 2
Format : DTS XLL
Format/Info : Digital Theater Systems
Commercial name : DTS-HD Master Audio
Codec ID : A_DTS
Duration : 2 h 13 min
Bit rate mode : Variable
Bit rate : 3 538 kb/s
Channel(s) : 8 channels
Channel layout : C L R LFE Lb Rb Lss Rss
Sampling rate : 48.0 kHz
Frame rate : 93.750 FPS (512 SPF)
Bit depth : 24 bits
Compression mode : Lossless
Stream size : 3.31 GiB (13%)
Title : Fantastic.Beasts.The.Crimes.of.Grindelwald.2018.1080p.3D.BluRay.Half-OU.x264.DTS-HD.MA.7.1-FGT
Language : English
Default : Yes
Forced : No

Audio #2
ID : 3
Format : AC-3
Format/Info : Audio Coding 3
Commercial name : Dolby Digital
Codec ID : A_AC3
Duration : 2 h 13 min
Bit rate mode : Constant
Bit rate : 448 kb/s
Channel(s) : 6 channels
Channel layout : L R C LFE Ls Rs
Sampling rate : 48.0 kHz
Frame rate : 31.250 FPS (1536 SPF)
Bit depth : 16 bits
Compression mode : Lossy
Stream size : 429 MiB (2%)
Title : Fantastic.Beasts.The.Crimes.of.Grindelwald.2018.1080p.3D.BluRay.Half-OU.x264.DTS-HD.MA.7.1-FGT
Language : English
Service kind : Complete Main
Default : No
Forced : No

Audio #3
ID : 4
Format : AC-3
Format/Info : Audio Coding 3
Commercial name : Dolby Digital
Codec ID : A_AC3
Duration : 2 h 13 min
Bit rate mode : Constant
Bit rate : 448 kb/s
Channel(s) : 6 channels
Channel layout : L R C LFE Ls Rs
Sampling rate : 48.0 kHz
Frame rate : 31.250 FPS (1536 SPF)
Bit depth : 16 bits
Compression mode : Lossy
Stream size : 429 MiB (2%)
Title : Fantastic.Beasts.The.Crimes.of.Grindelwald.2018.1080p.3D.BluRay.Half-OU.x264.DTS-HD.MA.7.1-FGT
Language : French
Service kind : Complete Main
Default : No
Forced : No

Audio #4
ID : 5
Format : DTS XLL
Format/Info : Digital Theater Systems
Commercial name : DTS-HD Master Audio
Codec ID : A_DTS
Duration : 2 h 13 min
Bit rate mode : Variable
Bit rate : 2 176 kb/s
Channel(s) : 6 channels
Channel layout : C L R Ls Rs LFE
Sampling rate : 48.0 kHz
Frame rate : 93.750 FPS (512 SPF)
Bit depth : 16 bits
Compression mode : Lossless
Stream size : 2.03 GiB (8%)
Title : Fantastic.Beasts.The.Crimes.of.Grindelwald.2018.1080p.3D.BluRay.Half-OU.x264.DTS-HD.MA.7.1-FGT
Language : German
Default : No
Forced : No

Audio #5
ID : 6
Format : AC-3
Format/Info : Audio Coding 3
Commercial name : Dolby Digital
Codec ID : A_AC3
Duration : 2 h 13 min
Bit rate mode : Constant
Bit rate : 192 kb/s
Channel(s) : 2 channels
Channel layout : L R
Sampling rate : 48.0 kHz
Frame rate : 31.250 FPS (1536 SPF)
Bit depth : 16 bits
Compression mode : Lossy
Stream size : 184 MiB (1%)
Title : Fantastic.Beasts.The.Crimes.of.Grindelwald.2018.1080p.3D.BluRay.Half-OU.x264.DTS-HD.MA.7.1-FGT
Language : German
Service kind : Complete Main
Default : No
Forced : No

Audio #6
ID : 7
Format : AC-3
Format/Info : Audio Coding 3
Commercial name : Dolby Digital
Codec ID : A_AC3
Duration : 2 h 13 min
Bit rate mode : Constant
Bit rate : 448 kb/s
Channel(s) : 6 channels
Channel layout : L R C LFE Ls Rs
Sampling rate : 48.0 kHz
Frame rate : 31.250 FPS (1536 SPF)
Bit depth : 16 bits
Compression mode : Lossy
Stream size : 429 MiB (2%)
Title : Fantastic.Beasts.The.Crimes.of.Grindelwald.2018.1080p.3D.BluRay.Half-OU.x264.DTS-HD.MA.7.1-FGT
Language : Spanish
Service kind : Complete Main
Default : No
Forced : No



Fantastic.Beasts.The.Crimes.of.Grindelwald.2018.1080p.3D.BluRay.Half-OU.x264.DTS.torrent (62.76 KB)


回復

使用道具 舉報

小黑屋|百度云資源分享吧 ( 京ICP備15014721號-2 )

本網站所有資源來自網絡,如無意中侵犯了您的權益,請發郵件至 [email protected],立即清除相關鏈接

GMT+8, 2019-11-15 07:39 , Processed in 0.074328 second(s), 20 queries .

Powered by Discuz! X3.2

© 2001-2013 Comsenz Inc.

快速回復 返回頂部 返回列表
四川金7乐下载